Как сделать файл в формате aac

загрузка...

загрузка...

Как сделать файл в формате aac 3

Как оказалось, муз, а мне от смартфона, фото.
  • Avi Пример: Следующий сценарий я привожу в качестве того, как можно обработать видеоматериал, используя лишь командную строку.
  • Оригинал документа лежит на copyright Howard Pritchett.
  • Спектрограммы и Амплитудно-Частотные Характеристики (которые также поставляются с этим описанием в графических форматах.jpg) показали следующее (здесь приведены урезанные изображения, а именно - спектрограмма только одного канала.
  • AMR 3G-мобильные телефоны используют специальные кодеки в формате.3gp, которые доступны тут : 3gpp.
  • Звук "заканчивается" на 18,5 kHz: CBR 224 kb/s - Качество хорошее.
  • Отличный, быстрый и простой сервис с большим количеством разнообразных функций.

Как распознать диск CD записанный из mp3 файлов

загрузка...

загрузка...

Как сделать файл в формате aac 154

В AAC, например, aiff, в программе iTunes вы можете конвертировать муз ыкальные файлы в разные форматы.

Как сделать файл в формате aac 33

Далее вы извлекаете файл в формате m4a.

Как сделать файл в формате aac 111

14 возвращаемся в папку моя музыкарингтоны и там кликаем правой клавишей мышки на файле и меняем разрешение после точки с m4a на m4r и подтверждаем смену разрешения g 146.

Как сделать файл в формате aac 112

54 КБ КБ 61507 просмотров 3 выбираем песню из которой хотим сделать рингтон и нажимаем открыть g 138 7 КБ 61507 просмотров 2 выбираем файл добавить файл в медиатеку g 256.

Как сделать файл в формате aac 78

Более современная инструкция как сделать рингтон для iPhone с помощью iTunes находится здесь.

Как сделать файл в формате aac 77

Мы постараемся добавить ваш формат в список MP3конвертеров.

Как сделать файл в формате aac 60

00, без изменений8000 Гц11025 Гц16000 Гц22050 Гц24000 Гц32000 Гц44100 Гц48000 Гц96000.

Как сделать файл в формате aac 139

Изменить битрейт аудиофайла, пример, aAC, выберите из Google Drive 3 или выберите файл из облачного хранилища для конвертации.

Как сделать файл в формате aac 101

Конвертер aac, с помощью этого конвертера вы также можете вырезать аудиофайл из видео.

Как сделать файл в формате aac 60

Онлайн конвертер конвертирует ваши аудиофайлы в формат AAC.

Как загрузить фото и видео с компьютера в, instagram

  • Скачиваем программу которая называется Tau Analyzer.
  • Flv Duration: 00:01:43.4, start:.000000, bitrate: N/A Stream #0.0: Audio: mp3, 22050 Hz, mono Stream #0.1: Video: flv, yuv420p, 320x240,.00 fps(r) Output #0, dvd, to 'g Stream #0.0: Video: mpeg2video, yuv420p, 720x480, q2-31, 2000 kb/s,.97 fps(c) Stream #0.1: Audio: mp2, 22050 Hz, mono.
  • После чего, все скопированные треки были записаны на диск и проверены программой Tau Analyzer.
  • Anamorphic video Речь идет о ситуации, когда физическое изображение отображаемое на экране, имеет те же пропорции, что и число пикселов, составляющих ширину и высоты изображения.

14

124

19

150

153

28

129

41

122

загрузка...

загрузка...

Похожие новости: